#TITLE:SF-R;
#SUBTITLE:~Keidancer original~;
#ARTIST:Dj Sharpnel;
#TITLETRANSLIT:;
#SUBTITLETRANSLIT:;
#ARTISTTRANSLIT:;
#CREDIT:;
#BANNER:sf-r-banner.PNG;
#BACKGROUND:sf-rbg.png;
#LYRICSPATH:;
#CDTITLE:keidancer.png;
#MUSIC:sf-r.mp3;
#OFFSET:0.000;
#SAMPLESTART:36.390;
#SAMPLELENGTH:18.000;
#SELECTABLE:YES;
#BPMS:0.000=162.200;
#STOPS:;
#BGCHANGES:;
// cache tags:
#FIRSTBEAT:0.500;
#LASTBEAT:489.000;
#SONGFILENAME:Songs/Chilean Keyboard Megapack 3/(Keidancer) sf-r/sf-r.sm;
#HASMUSIC:1;
#HASBANNER:1;
#MUSICLENGTH:185.137;
// end cache tags

//---------------dance-single - Blank----------------
#NOTES:
     dance-single:
     Blank:
     Challenge:
     11:
     1.000,1.000,0.810,0.227,1.000,1383.000,150.000,42.000,0.000,0.000:
0000
0000
0010
0000
1000
0100
1000
0000
0001
0100
0001
1000
0000
0001
0000
0010
,
0000
0100
1000
0000
0010
0001
0100
0000
0010
1000
0001
0000
0000
1001
0000
0000
,
0101
0000
0110
0000
1000
0100
0010
0000
0001
0100
0001
1000
0000
0100
0000
0010
,
0000
0001
1000
0000
0010
0100
1000
0000
0010
0100
0001
0000
0000
0110
0000
0000
,
1010
0000
1100
0010
0001
0100
0010
1000
0100
0010
0001
0100
0001
0100
0010
1000
,
0010
1000
0100
0010
0001
1000
0010
0100
0001
0010
0100
1000
0100
1000
0010
0100
,
0010
0100
0001
1000
0100
0010
0001
0100
0010
1000
0100
0010
0100
0010
0001
0100
,
0001
0100
0010
1000
0100
0010
0001
1000
0010
0100
0001
0100
0001
0010
0100
0010
,
0100
1000
0001
0100
0010
1000
0100
0010
0001
0100
0010
1000
0010
1000
0001
0100
,
0001
0100
0010
1000
0100
0010
0001
0100
0010
1000
0100
0010
0100
0010
0001
0100
,
0001
0100
0010
1000
0100
0010
0001
1000
0100
0010
0001
0100
0001
0100
0010
1000
,
0010
1000
0001
0010
0100
1000
0001
0100
0010
1000
0100
0010
0100
0010
0001
0100
,
0001
0100
0010
1000
0100
0010
0001
0100
0010
1000
0100
0010
0100
0010
0001
0100
,
0001
0100
0010
1000
0100
0010
0001
1000
0010
0100
0001
0010
0001
0010
0100
1000
,
0100
1000
0001
0100
0010
1000
0001
0010
0100
1000
0001
0100
0001
0100
0010
1000
,
0010
1000
0100
0010
0001
1000
0010
0100
0001
0010
0100
1000
0100
1000
0010
0100
,
0010
0100
0001
0010
0100
1000
0010
0100
0001
0010
0100
1000
0100
1000
0010
0100
,
0010
0100
0001
1000
0100
0010
0001
1000
0010
0100
0001
0010
0001
0010
0100
1000
,
0100
1000
0001
0100
0010
1000
0100
0010
0001
0100
0010
1000
0010
1000
0001
0010
,
0100
0000
1100
0000
1000
0010
1000
0000
0001
0000
0100
0000
0010
0000
1000
0100
,
1000
0100
1000
0000
0010
0001
0010
0000
1000
0100
1000
0000
0010
0100
0010
0000
,
0100
0001
0100
0001
0100
0000
0010
1000
0010
0000
0100
0001
0100
0000
0010
1000
,
0100
1000
0100
0000
0010
0000
0001
0100
0001
0100
0001
0000
1000
0100
0010
0000
,
0001
0010
0100
0000
1000
0000
0001
0100
0001
0000
1000
0100
1000
0000
0001
0100
,
0001
0000
1000
0100
1000
0100
0010
0000
0001
0100
0010
0000
1000
0010
0100
0000
,
0001
1000
0100
1000
0100
0000
0010
0001
0100
0000
0010
1000
0100
0000
0010
0001
,
0100
0001
0100
0010
1000
0010
1000
0000
0100
0000
0010
0000
0001
0100
0010
0000
,
1000
0010
0100
0000
0001
0010
0100
0000
1000
0001
0100
0000
0010
1000
0100
1000
,
0100
0010
0001
0000
0100
0010
1000
0000
0100
0010
0001
0000
0100
0010
1000
0000
,
0100
0010
0001
0000
1000
0100
0010
0001
1000
0100
0010
0001
0100
0010
1000
0000
,
0100
0010
0001
0000
0101
0000
0110
0000
1010
0000
0110
0000
0101
0000
1001
0000
,
1100
0000
0010
0001
0100
0000
1000
0100
0001
0000
1000
0100
0010
0000
0001
0010
,
0100
0000
1000
0001
0100
0000
0010
1000
0100
0000
0010
0001
0100
0010
1000
0010
,
1000
0100
1000
0100
1000
0010
0100
0010
0100
0001
0100
0001
0100
0010
1000
0010
,
1000
0101
0110
1010
0110
1001
1100
0110
,
0011
0000
0001
0100
0000
0100
0010
0000
0010
1000
0000
1000
0100
0000
0110
0000
,
0011
0000
0010
0100
0000
0100
1000
0000
1000
0001
0000
0001
0100
0000
0110
0000
,
1010
0000
1000
0100
0000
0100
0010
0000
0010
0001
0000
0001
0100
0000
0110
0000
,
1010
0000
1000
0001
0000
0001
0100
0000
0100
0010
0000
0010
1000
0000
1000
0100
,
1000
0000
0010
0100
0000
0100
0001
0000
0001
0010
0000
0010
0100
0000
1100
0000
,
1001
0000
0001
0100
0000
0100
0010
0000
0010
1000
0000
1000
0100
0000
0110
0000
,
0011
0000
0001
0100
0000
0100
0010
0000
0010
1000
0000
1000
0100
0000
0110
0000
,
0011
0000
0001
1000
0000
1000
0100
0000
0100
0010
0000
0010
0001
0000
1001
0000
,
1100
0000
0010
0001
0000
1000
0100
0000
0010
0001
0000
0100
0010
0000
1000
0100
,
1000
0000
0010
0100
0000
0001
1000
0000
0100
0010
0000
0001
0100
0000
0010
0100
,
0010
0000
2000
3000
0200
0300
0020
0030
0002
0003
0020
0030
0200
0300
2000
3000
,
0002
0003
0200
0000
0000
0000
0000
0000
0310
0000
2000
0000
0000
0000
0100
0000
,
0000
3000
0010
0000
0001
0000
0010
0000
0100
0000
1000
0000
0001
0000
0100
0000
,
0010
2000
0000
0000
0000
0000
0000
3010
,
0000
0000
0200
0300
0002
0003
2000
3000
0200
0300
2000
3000
0002
0003
0200
0300
,
0002
0000
0000
0000
0000
0000
0000
0000
0000
0000
0000
0000
0003
0000
0000
0000
0000
0000
0000
0000
0000
0000
0000
0020
0000
0000
0000
0000
0000
0000
0000
0000
0000
0000
0000
0000
0000
0000
0000
0000
0000
0000
0000
0000
0000
0000
0000
0000
0000
0000
0000
0000
0000
0000
0000
0000
0000
0000
0000
0000
0000
0000
0000
0000
0000
0000
0000
0000
0000
0000
0000
0030
0020
0000
0000
0000
0000
0000
0000
0000
0000
0000
0000
0000
0030
0000
0000
0000
0000
0000
0000
0000
0000
0000
0000
0000
0200
0000
0000
0000
0000
0000
0000
0000
0000
0000
0000
0000
0300
0000
0000
0000
0000
0000
0000
0000
0000
0000
0000
0000
2000
0000
0000
0000
0000
0000
0000
0000
0000
0000
0000
0000
0000
0000
0000
0000
0000
0000
0000
0000
0000
0000
0000
0000
3000
0000
0000
0000
0000
0000
0000
0000
0000
0000
0000
0000
0000
0000
0000
0000
0000
0000
0000
0000
0000
0000
0000
0000
1100
0000
0000
0000
0000
0000
0000
0000
0000
0000
0000
0000
0000
0000
0000
0000
0000
0000
0000
0000
0000
0000
0000
0000
,
0000
0000
0002
0003
0200
0300
0020
0030
2000
3000
0020
0030
0200
0300
0002
0003
,
0020
0030
0200
0000
0000
0000
0000
0000
0000
0000
0000
0000
0000
0000
1300
0000
,
0000
0000
0001
0100
0010
1000
0100
0010
0001
0100
0010
1000
0010
1000
0100
0010
,
0100
0010
0001
0100
0010
1000
0100
0010
0001
0100
0010
1000
0010
1000
0100
0010
,
0100
0010
0001
0100
0010
1000
0010
0100
0001
1000
0100
0010
0100
0010
0001
0100
,
0001
0100
0010
1000
0100
0010
0001
0100
0010
1000
0100
0010
0100
0010
0001
0100
,
0001
0100
0010
1000
0100
0010
0001
1000
0010
0100
0001
0010
0001
0010
0100
1000
,
0100
1000
0010
0100
0001
0010
0100
1000
0001
0100
0010
1000
0010
1000
0100
0010
,
0100
0010
0001
0100
0010
1000
0100
0010
0001
0100
0010
1000
0010
1000
0001
0100
,
0001
0100
0010
1000
0100
0010
0001
0100
0010
1000
0100
0010
0100
0010
0001
1000
,
0001
1000
0110
0000
0100
0001
0100
0000
1000
0100
1000
0000
0010
0100
0010
0000
,
0100
0001
1000
0100
0010
0001
0100
0000
1000
0010
0100
0000
0001
0100
0010
0000
,
1000
0010
0100
0001
0010
0000
0100
1000
0001
0000
0100
0010
1000
0000
0010
0100
,
0001
0000
0010
0100
0010
0000
0001
0100
0001
0000
1000
0100
0010
0001
1000
0100
,
0010
0000
0001
0100
0001
0000
1000
0100
1000
0000
0010
0100
0001
0000
0010
0100
,
1000
0000
0001
0100
0010
1000
0001
0010
0100
0000
1000
0001
0100
0000
0010
1000
,
0010
0000
0100
0001
0100
0000
0010
1000
0100
0000
0010
0001
0010
0000
0100
1000
,
0001
0100
0010
1000
0100
0000
0010
0001
0010
0000
0100
1000
0100
0000
0010
0001
,
0100
0001
0010
0100
1000
0000
0001
0100
0001
0000
1000
0100
1000
0000
0001
0100
,
0010
1000
0001
0100
0010
0000
1000
0100
1000
0000
0001
0100
0001
0000
0010
0100
,
0010
0001
0100
0000
0010
0000
1000
0000
0100
0010
0000
0010
0100
0000
1000
0000
,
0001
0000
0100
0010
0100
0000
0001
1000
0100
0000
0010
0001
0010
0000
0100
1000
,
0001
0000
0100
0010
0100
0000
0001
1000
0100
0000
0010
0001
0100
0000
0010
1000
,
0100
0010
0001
0100
0010
1000
0100
1000
0001
0100
0010
1000
0100
0010
0001
0100
,
0010
1010
1100
0110
1100
1001
0101
0110
,
1001
0000
0000
0000
0100
0000
0000
0000
0010
0000
0000
0000
1000
0000
0000
0000
1000
0000
0000
0000
1000
0000
0000
0000
1000
0000
0000
0000
1000
0100
1000
0100
,
1000
0000
0001
0100
0000
0100
0010
0000
0010
1000
0000
1000
0100
0000
0110
0000
,
0011
0000
0001
1000
0000
1000
0100
0000
0100
0010
0000
0010
0001
0000
1001
0000
,
1100
0000
0010
0001
0000
0001
0100
0000
0100
0010
0000
0010
1000
0000
0110
0000
,
0101
0000
0001
1000
0000
1000
0100
0000
0100
0010
0000
0010
0001
0000
0100
0010
,
0100
0000
0001
1000
0000
1000
0100
0000
0100
0010
0000
0010
0001
0000
1001
0000
,
1100
0000
1000
0001
0000
0001
0100
0000
0100
0010
0000
0010
1000
0000
1001
0000
,
0101
0000
0001
0100
0000
0100
0010
0000
0010
1000
0000
1000
0001
0000
0101
0000
,
0110
0000
0010
1000
0000
1000
0001
0000
0001
0100
0000
0100
0010
0000
0110
0000
,
1010
0000
1000
0001
0000
0001
0010
0000
0010
0100
0000
0100
1000
0000
1010
0000
,
0110
0000
0100
0001
0000
0001
1000
0000
1000
0100
0000
0100
0010
0000
0011
0000
,
1001
0010
0100
0001
1000
0100
0010
0001
,
0100
1010
0001
0100
0010
0001
1000
0100
,
0010
1001
0100
0010
1000
0100
0010
0001
,
0100
1010
0001
0100
0010
1000
0100
0010
,
0001
0000
0110
0000
1000
0000
0101
0000
0001
0100
0010
1000
0010
0000
0101
0000
,
1001
0000
1100
0000
0010
0000
0101
0000
0010
1000
0100
0010
0001
0000
0110
0000
,
1100
0000
1001
0000
0100
0000
1001
0000
0010
1000
0010
0100
0001
0000
0011
0000
,
0110
0000
1100
0000
0001
0000
0110
0000
1000
0010
0100
0001
0100
0000
1010
0000
,
1100
0000
0110
0000
0001
0000
0110
0000
1000
0100
0010
0001
0010
0000
1100
0000
,
1001
0000
0101
0000
0010
0000
0110
0000
1000
0010
0100
0001
0100
0000
0110
0000
,
1001
0000
0101
0000
0010
0000
1100
0000
0010
0001
0010
0100
1000
0000
1100
0000
,
1001
0000
0101
0000
0010
0000
1100
0000
0010
0001
0010
0100
1000
0000
1001
0000
,
0101
0000
1100
0000
0010
0000
0101
0000
0010
1000
0100
0010
0001
0000
0011
0000
,
0110
0000
1100
0000
0010
0000
0101
0000
0010
1000
0100
0010
0001
0000
0011
0000
,
1001
0000
1100
0000
0100
0000
0101
0000
0010
1000
0100
0010
0001
0000
0101
0000
,
0110
0000
0000
0000
1010
0000
0000
0000
0100
0000
0000
0000
0100
0000
0000
0000
0100
0000
0000
0000
0100
0000
0000
0000
0100
0000
0000
0000
0100
0010
0100
0010
,
0100
0000
1000
0001
0000
0001
0100
0000
0100
0010
0000
0010
1000
0000
1100
0000
,
0110
0000
0001
1000
0000
1000
0100
0000
0100
0010
0000
0010
0001
0000
1001
0000
,
1100
0000
1000
0001
0000
0001
0100
0000
0100
0010
0000
0010
1000
0000
1001
0000
,
0101
0000
0010
1000
0000
1000
0100
0000
0100
0010
0000
0010
0001
0000
0100
0010
,
0100
0000
0001
1000
0000
1000
0100
0000
0100
0010
0000
0010
0001
0000
0101
0000
,
0110
0000
0010
1000
0000
1000
0100
0000
0100
0010
0000
0010
0001
0000
1001
0000
,
1100
0000
1000
0001
0000
0001
0100
0000
0100
0010
0000
0010
1000
0000
1100
0000
,
0110
0000
0001
0100
0000
0100
0010
0000
0010
1000
0000
1000
0100
0000
0110
0000
,
1001
0000
0100
0010
0000
0010
1000
0000
1000
0100
0000
0100
0010
0000
0011
0000
,
0101
0000
0010
1000
0000
1000
0100
0000
0100
1000
0000
1000
0010
0000
0110
0000
,
0101
0000
0001
0010
0000
0010
0100
0000
0100
1000
0000
1000
0001
0000
0101
0000
,
0110
0000
1000
0100
0000
0100
0010
0000
0010
0001
0000
0001
0100
0000
0110
0000
,
1010
0000
1000
0001
0000
0001
0100
0000
0100
0010
0000
0010
1000
0000
1100
0000
,
0110
0000
0010
0001
0000
0001
0010
0000
0010
0100
0000
0100
1000
0000
1001
0000
,
0101
0000
0010
1000
0000
1000
0010
0000
0010
0100
0000
0100
0001
0000
1001
0000
,
1100
0000
0010
0001
0000
0001
0100
0000
0100
0010
0000
0010
1000
0000
1100
0000
,
0110
0000
0010
0001
0000
0001
0100
0000
0100
0010
0000
0010
1000
0000
1100
0000
,
0110
0000
0010
0001
0000
0100
0010
0000
1000
0100
0000
0010
0001
0000
0100
0000
,
0000
0110
0000
0000
2020
0000
3030
2200
0000
3300
0022
0000
0033
0220
0000
0330
,
2200
3300
0000
0000
;
